#TITLE:DREAMS;
#SUBTITLE:;
#ARTIST:Romantic Mode;
#TITLETRANSLIT:;
#SUBTITLETRANSLIT:;
#ARTISTTRANSLIT:;
#CREDIT:;
#BANNER:dreams-logo.jpg;
#BACKGROUND:dreams.jpg;
#LYRICSPATH:;
#CDTITLE:Lan.png;
#MUSIC:DREAMS.mp3;
#OFFSET:-0.020;
#SAMPLESTART:100.000;
#SAMPLELENGTH:12.000;
#SELECTABLE:YES;
#BPMS:0.000=127.870,148.000=63.935,148.500=191.805,150.000=127.870;
#STOPS:;
#BGCHANGES:;
// cache tags:
#FIRSTBEAT:8.000;
#LASTBEAT:294.000;
#SONGFILENAME:Songs/SDO/DREAMS/DREAMS.sm;
#HASMUSIC:1;
#HASBANNER:1;
#MUSICLENGTH:143.481;
// end cache tags

//---------------dance-single - sky----------------
#NOTES:
     dance-single:
     sky:
     Hard:
     10:
     1.000,1.000,1.000,0.209,0.610,665.000,357.000,30.000,0.000,95.000:

0000
0000
0000
0000
,
0000
0000
0000
0000
,
0022
0000
0000
0000
,
1133
1100
0000
0000
0011
0011
0000
0000
0110
0110
0000
0000
1001
1001
0000
0000
,
1010
1010
0000
0000
0101
0101
0000
0000
1100
0110
0000
0000
0011
0110
0000
0000
,
0011
0011
0000
0000
1100
1100
0000
0000
1001
1001
0000
0000
0110
0110
0000
0000
,
1100
1100
0000
0000
0110
0110
0000
0000
0011
0011
0000
0000
1001
1001
0000
0000
,
1100
0110
0011
0000
0011
0110
1100
0000
0110
1100
0110
0000
0110
0011
0110
0000
,
0011
0110
1100
0000
1100
0110
0011
0000
1100
0110
1100
0000
0011
0110
0011
0000
,
1100
0011
1100
0000
0011
1100
0011
0000
0110
1100
0011
0000
0110
0011
1100
0000
,
0011
1100
0011
0000
1100
0011
1100
0000
0110
0011
1100
0000
0110
1100
0011
0000
,
1011
0011
0011
0000
1111
0011
0011
0000
0111
0011
0011
0000
1111
0011
0011
0000
,
1101
1100
1100
0000
1111
1100
1100
0000
1110
1100
1100
0000
1111
1100
1100
0000
,
0111
0011
0011
0000
1111
1100
1100
0000
0111
0011
0011
0000
1111
1100
1100
0000
,
1110
1100
1100
0000
1111
0011
0011
0000
1110
1100
1100
0000
1111
0011
0011
0000
,
1110
1100
1100
0000
0111
0110
0110
0000
0111
0011
0011
0000
1110
0110
0110
0000
,
0111
0011
0011
0000
1110
0110
0110
0000
1110
1100
1100
0000
0111
0110
0110
0000
,
1110
1110
1110
0000
0111
0111
0111
0000
1101
1101
1101
0000
1011
1011
1011
0000
,
0111
0111
0111
0000
1110
1110
1110
0000
1011
1011
1011
0000
1101
1101
1101
0000
,
2002
0000
0000
0000
0000
0000
0000
0000
3113
0110
0110
0110
0110
0110
0110
0110
,
1000
0100
0011
0100
0010
1000
1100
0001
,
0100
0001
1010
0100
0001
1000
0110
0100
,
0001
0100
0110
1000
0001
0100
0011
0010
,
0100
0001
1010
0100
1000
0010
0101
0010
,
0001
0100
0110
0001
0100
0010
1100
0100
,
1000
0100
0011
1000
0001
0010
0110
0001
,
0100
0001
1010
0100
1000
0001
0110
0100
,
0010
0001
1100
0010
0100
0001
0011
0100
,
2100
0010
0110
0001
0010
0100
0011
0010
,
3012
0100
0110
1000
0100
0010
1100
0100
,
1203
0010
1010
0001
0010
1000
0011
1000
,
0321
0100
0101
1000
0100
0001
1100
1000
,
2130
0010
0011
0001
0010
0100
0110
0010
,
3012
0100
1100
1000
0100
0010
0110
0100
,
1203
0010
0011
0001
0010
1000
1010
1000
,
0321
0100
1100
1000
0100
0001
0101
1000
,
0031
0000
0010
0000
1100
1100
0000
0000
1000
0000
0100
0000
0011
0011
0000
0000
,
0000
0000
2000
0000
,
3020
0000
0230
0000
,
0302
0000
0203
0000
,
2300
0000
3002
0000
,
0023
0000
0000
0000
0000
0000
0000
0000
1030
0100
0000
0000
0100
0010
0000
0000
,
0010
0001
0000
0000
0001
1000
0000
0000
0100
0010
0000
0000
0001
0010
0000
0000
,
1000
0100
0000
0000
1000
0001
0000
0000
0001
0010
0000
0000
0010
0100
0000
0000
,
0100
1000
0000
0000
1000
0001
0000
0000
0010
0100
0000
0000
1000
0100
0000
0000
,
0001
0010
0100
0000
1000
0100
0010
0000
2100
0100
0100
0000
0010
0010
0010
0000
,
0001
0001
0001
0000
0100
0100
0100
0000
3012
0010
0010
0000
0100
0100
0100
0000
,
1000
1000
1000
0000
0010
0010
0010
0000
1203
1000
1000
0000
0010
0010
0010
0000
,
0001
0001
0001
0000
1000
1000
1000
0000
0321
0001
0001
0000
0100
0100
0100
0000
,
1000
1000
1000
0000
0001
0001
0001
0000
0130
0000
1000
0000
1010
0000
0100
0000
,
0001
0010
0110
1000
0100
0001
0011
0001
,
1000
0010
1100
0010
1000
0010
1100
0001
,
0010
0100
0011
0100
1000
0010
0101
0010
,
0001
0010
0100
0000
1000
0100
0010
0000
2100
0100
0100
0000
0010
0010
0010
0000
,
0001
0001
0001
0000
0100
0100
0100
0000
3012
0010
0010
0000
0100
0100
0100
0000
,
1000
1000
1000
0000
0010
0010
0010
0000
1203
1000
1000
0000
0010
0010
0010
0000
,
0001
0001
0001
0000
1000
1000
1000
0000
0321
0001
0001
0000
0100
0100
0100
0000
,
1000
1000
1000
0000
0001
0001
0001
0000
0130
0000
1000
0000
0011
0000
0100
0000
,
0001
0010
1100
1000
0100
0001
0110
0001
,
1000
0010
1001
0010
1000
0001
1010
0100
,
0010
1000
0101
0010
1000
0010
1100
0010
,
0001
0010
0100
0000
1000
0100
0010
0000
0100
0010
0001
0010
0100
1000
0100
0010
,
0001
0010
0100
1000
0100
0010
0001
0010
0100
1000
0100
0010
0001
0010
0100
1000
,
0011
1100
0011
1100
0011
1100
0011
1100
0011
0110
1100
0000
1100
0110
0011
0000
,
0110
1100
0110
0000
0110
0011
0110
0000
1100
0110
0011
0000
0011
0110
1100
0000
,
1100
0110
1100
0000
0011
0110
0011
0000
1100
0011
1100
0000
0011
1100
0011
0000
,
0110
1100
0011
0000
0110
0011
1100
0000
0011
1100
0011
0000
1100
0011
1100
0000
,
0110
0011
1100
0000
0110
1100
0011
0000
1011
0011
0011
0000
1111
0011
0011
0000
,
0111
0011
0011
0000
1111
0011
0011
0000
1101
1100
1100
0000
1111
1100
1100
0000
,
1110
1100
1100
0000
1111
1100
1100
0000
0111
0011
0011
0000
1111
1100
1100
0000
,
0111
0011
0011
0000
1111
1100
1100
0000
1110
1100
1100
0000
1111
0011
0011
0000
,
1110
1100
1100
0000
1111
0011
0011
0000
0100
0000
0000
1000
0000
0000
0001
0000
,
0000
0010
0000
0000
1000
0100
0010
0001
0000
2200
0000
0000
0000
0000
0000
0000
,
0000
0000
3300
0000
;
